It is currently Tue Sep 17, 2019 12:36 pm Advanced search

uploadGIG.com Premium
Download Fortune | DDLPal Downloads | Crack Download | Download Serial | Warez Download | Warez Download | Download Serial | Download Warez | WarezKeeper | Download Serial Crack | Download File Crack | Full Downloads

Donnie Brasco (1997) 720p BluRay x264 AAC [Dual Audio][Hindi

Topic which are considered as Spam, not need.... etc. Those will be moved here.

Donnie Brasco (1997) 720p BluRay x264 AAC [Dual Audio][Hindi

Postby kamran444 » Sat Sep 07, 2019 7:01 pm

Image






Code: Select all
Format : Matroska
Format version : Version 4
File size : 1.32 GiB
Duration : 2 h 27 min
Overall bit rate : 1 284 kb/s
Movie name : Donnie Brasco 1997 GOPISAHI

Video
ID : 1
Format : AVC
Format/Info : Advanced Video Codec
Format profile : High@L4.1
Format settings : CABAC / 12 Ref Frames
Format settings, CABAC : Yes
Format settings, Reference fra : 12 frames
Codec ID : V_MPEG4/ISO/AVC
Duration : 2 h 27 min
Bit rate : 1 025 kb/s
Width : 1 280 pixels
Height : 536 pixels
Display aspect ratio : 2.40:1
Frame rate mode : Constant
Frame rate : 23.976 (24000/1001) FPS
Color space : YUV
Chroma subsampling : 4:2:0
Bit depth : 8 bits
Scan type : Progressive
Bits/(Pixel*Frame) : 0.062
Stream size : 1.05 GiB (80%)
Title : GOPISAHI
Writing library : x264 core 142 r2431+42 c69a006 tMod [8-bit@4:2:0 X86_64]

Audio #1
Format : AAC LC
Duration : 2 h 27 min
Bit rate : 129 kb/s
Channel(s) : 2 channels
Channel layout : L R
Sampling rate : 48.0 kHz
Frame rate : 46.875 FPS (1024 SPF)
Compression mode : Lossy
Stream size : 135 MiB (10%)
Title : GOPISAHI
Language : Hindi

Audio #2
Format : AAC LC
Duration : 2 h 27 min
Bit rate : 128 kb/s
Channel(s) : 6 channels
Channel layout : C L R Ls Rs LFE
Sampling rate : 48.0 kHz
Frame rate : 46.875 FPS (1024 SPF)
Compression mode : Lossy
Delay relative to video : 9 ms
Stream size : 134 MiB (10%)
Title : GOPISAHI
Language : English

Text
Language : English

Menu
00:00:00.000 : :Chapter 1
00:11:03.412 : :Chapter 2
00:20:36.276 : :Chapter 3
00:31:25.133 : :Chapter 4
00:42:13.155 : :Chapter 5
00:52:52.711 : :Chapter 6
01:01:35.274 : :Chapter 7
01:12:28.969 : :Chapter 8
01:20:14.476 : :Chapter 9
01:29:14.974 : :Chapter 10
01:39:27.211 : :Chapter 11
01:47:53.383 : :Chapter 12
01:53:53.535 : :Chapter 13
01:58:56.754 : :Chapter 14
02:09:42.524 : :Chapter 15
02:16:40.609 : :Chapter 16



Image

Image

DOWNLOAD LINKS


Code: Select all
https://www.heroupload.com/2a28f71228ed7e32/Donnie_Brasco_1997_x264_720p_Esub_BluRay_Dual_Audio_English_Hindi_GOPISAHI.mkv
kamran444
Warez Junior
Warez Junior
 
Posts: 364
Joined: Thu Nov 01, 2012 4:38 pm

Return to Recycle Bin

Who is online

Users browsing this forum: No registered users and 12 guests

cron