It is currently Mon Oct 23, 2017 6:30 am Advanced search

uploadGIG.com Premium
Download Fortune | DDLPal Downloads | Crack Download | Download Serial | Warez Download | Warez Download | Download Serial | Download Warez | WarezKeeper | Download Serial Crack | Download File Crack | Full Downloads

Chaamp (2017) Bengali - Untouched - SDTV - H264 - AAC-DDR

Bangla Music, Bangla Natoks, Movies, Bangla Teles & Videos, Bangla music artists and Bands, Bangla song lyric.. etc.

Chaamp (2017) Bengali - Untouched - SDTV - H264 - AAC-DDR

Postby wroser » Sun Sep 17, 2017 5:35 am

Image




Code: Select all
General
Complete name               : Chaamp (2017) Untouched SDTV H264 AAC-DDR.mp4
Format                      : MPEG-4
Format profile              : Base Media
Codec ID                    : isom (isom/iso2/avc1/mp41)
File size                   : 929 MiB
Duration                    : 2 h 28 min
Overall bit rate            : 877 kb/s
Writing application         : Lavf54.63.104

Video
ID                          : 1
Format                      : AVC
Format/Info                 : Advanced Video Codec
Format profile              : [email protected]
Format settings, CABAC      : Yes
Format settings, ReFrames   : 2 frames
Codec ID                    : avc1
Codec ID/Info               : Advanced Video Coding
Duration                    : 2 h 28 min
Bit rate                    : 808 kb/s
Width                       : 640 pixels
Height                      : 480 pixels
Display aspect ratio        : 4:3
Original display aspect rat : 4:3
Frame rate mode             : Constant
Frame rate                  : 25.000 FPS
Color space                 : YUV
Chroma subsampling          : 4:2:0
Bit depth                   : 8 bits
Scan type                   : Progressive
Bits/(Pixel*Frame)          : 0.105
Stream size                 : 856 MiB (92%)

Audio
ID                          : 2
Format                      : AAC
Format/Info                 : Advanced Audio Codec
Format profile              : LC
Codec ID                    : 40
Duration                    : 2 h 28 min
Duration_LastFrame          : -21 ms
Bit rate mode               : Constant
Bit rate                    : 64.0 kb/s
Channel(s)                  : 2 channels
Channel positions           : Front: L R
Sampling rate               : 48.0 kHz
Frame rate                  : 46.875 FPS (1024 spf)
Compression mode            : Lossy
Stream size                 : 67.8 MiB (7%)
Language                    : Bengali
Default                     : Yes



Image
Image
Image
Image
Image
Image
Image
Image

SINGLE DIRECT FAST LINKS
Code: Select all
http://www.heroupload.com/87abc86952d16b49/Chaamp_(2017)_Untouched_SDTV_H264_AAC-DDR.mp4


Code: Select all
http://filefloater.com/5NT/Chaamp_(2017)_Untouched_SDTV_H264_AAC-DDR.mp4
wroser
Lord Of Warez
Lord Of Warez
 
Posts: 3378
Joined: Sun Jun 03, 2012 7:28 pm

Return to Bangla Entertainment

Who is online

Users browsing this forum: No registered users and 2 guests